<?xml version="1.0" standalone="no"?>
<!DOCTYPE svg PUBLIC "-//W3C//DTD SVG 1.1//EN" "http://www.w3.org/Graphics/SVG/1.1/DTD/svg11.dtd" >
<svg xmlns="http://www.w3.org/2000/svg">
<metadata>Generated by IcoMoon</metadata>
<defs>
<font id="icomoon" horiz-adv-x="1024">
<font-face units-per-em="1024" ascent="960" descent="-64" />
<missing-glyph horiz-adv-x="1024" />
<glyph unicode="&#x20;" horiz-adv-x="512" d="" />
<glyph unicode="&#xe900;" glyph-name="logo_figma_icon-1" d="M672 608c42.436 0 83.132 16.857 113.139 46.863 30.003 30.006 46.861 70.703 46.861 113.137s-16.858 83.131-46.861 113.137c-30.007 30.006-70.703 46.863-113.139 46.863h-320c-42.435 0-83.131-16.857-113.137-46.863s-46.863-70.703-46.863-113.137c0-42.435 16.857-83.131 46.863-113.137s70.703-46.863 113.137-46.863c-42.435 0-83.131-16.857-113.137-46.863s-46.863-70.701-46.863-113.137c0-42.436 16.857-83.132 46.863-113.139 30.006-30.003 70.703-46.861 113.137-46.861-31.645 0-62.579-9.382-88.891-26.965-26.312-17.579-46.819-42.569-58.929-71.804-12.11-29.239-15.279-61.41-9.105-92.446s21.412-59.546 43.788-81.92c22.377-22.379 50.886-37.619 81.923-43.789 31.037-6.174 63.208-3.008 92.444 9.105 29.237 12.109 54.227 32.614 71.805 58.927 17.583 26.313 26.965 57.246 26.965 88.892v480h160zM672 288c88.367 0 160 71.633 160 160s-71.633 160-160 160-160-71.634-160-160c0-88.367 71.633-160 160-160z" />
<glyph unicode="&#xe901;" glyph-name="Ai-Scanner-Robot--Streamline-Flex-1" d="M357.336 888.029c-2.908 30.157-29.712 52.246-59.869 49.338-49.603-4.783-97.993-10.64-144.397-16.734-57.571-7.56-102.619-53.093-109.792-110.567-5.71-45.744-11.323-93.655-15.959-142.817-2.844-30.163 19.302-56.921 49.464-59.766s56.921 19.302 59.766 49.465c4.489 47.611 9.954 94.307 15.599 139.529 1.006 8.057 7.301 14.337 15.208 15.375 45.68 5.999 92.727 11.686 140.643 16.306 30.157 2.908 52.247 29.713 49.338 59.869zM947.2 288.516c-30.157 2.846-56.917-19.302-59.763-49.463-4.484-47.607-9.954-94.31-15.595-139.529-1.011-8.060-7.3-14.336-15.206-15.373-45.683-5.999-92.732-11.691-140.646-16.311-30.157-2.906-52.245-29.709-49.34-59.866 2.91-30.157 29.713-52.25 59.87-49.344 49.6 4.783 97.993 10.641 144.401 16.734 57.57 7.565 102.613 53.094 109.786 110.571 5.713 45.743 11.324 93.653 15.962 142.818 2.846 30.161-19.302 56.922-49.468 59.763zM726.519 937.368c49.6-4.783 97.993-10.64 144.401-16.734 57.57-7.56 102.613-53.093 109.786-110.567 5.713-45.744 11.324-93.655 15.962-142.817 2.846-30.163-19.302-56.921-49.468-59.766-30.157-2.844-56.917 19.302-59.763 49.465-4.484 47.611-9.954 94.307-15.595 139.529-1.011 8.057-7.3 14.337-15.206 15.375-45.683 5.999-92.732 11.686-140.646 16.306-30.157 2.908-52.245 29.713-49.34 59.869 2.91 30.157 29.713 52.246 59.87 49.338zM76.783 288.516c-30.163-2.842-52.309-29.602-49.464-59.763 4.636-49.165 10.249-97.075 15.959-142.818 7.174-57.476 52.221-103.006 109.792-110.571 46.404-6.093 94.794-11.951 144.397-16.734 30.157-2.906 56.96 19.187 59.869 49.344s-19.182 56.96-49.338 59.866c-47.915 4.621-94.963 10.313-140.643 16.311-7.907 1.037-14.202 7.313-15.208 15.373-5.645 45.218-11.109 91.921-15.599 139.529-2.845 30.161-29.603 52.309-59.766 49.463zM608.004 734.059c0 61.444-34.564 96.006-96.009 96.006-61.44 0-96.003-34.562-96.003-96.006 0-39.671 14.407-68.136 41.155-83.328v-39.724c-48.235-0.566-97.24-2.649-141.020-10.304-42.874-7.497-75.875-40.651-84.893-82.422-8.677-40.192-8.676-73.664-8.675-134.524v-4.51c-0.001-60.86-0.001-94.332 8.675-134.524 9.018-41.775 42.020-74.923 84.893-82.419 60.148-10.517 130.157-10.517 194.485-10.517h2.765c64.324 0 134.336 0 194.483 10.517 42.871 7.497 75.874 40.644 84.89 82.419 8.683 40.192 8.678 73.664 8.678 134.524v4.51c0 60.86 0.004 94.332-8.678 134.524-9.015 41.772-42.018 74.926-84.89 82.422-43.772 7.654-92.77 9.737-141.001 10.304l0.004 39.734c26.735 15.194 41.139 43.655 41.139 83.318zM570.906 407.33c0 25.25 20.467 45.717 45.717 45.717 25.246 0 45.713-20.467 45.713-45.717v-31.185c0-25.25-20.467-45.713-45.713-45.713-25.25 0-45.717 20.463-45.717 45.713v31.185zM407.3 453.047c25.246 0 45.713-20.467 45.713-45.717v-31.185c0-25.25-20.467-45.713-45.713-45.713s-45.714 20.463-45.714 45.713v31.185c0 25.25 20.467 45.717 45.714 45.717z" />
<glyph unicode="&#xe902;" glyph-name="Amusement-Park-Castle--Streamline-Ultimate-1" d="M1019.307-29.44c-48.93 55.543-77.389 126.157-80.64 200.107 0 5.658-2.249 11.085-6.246 15.087-4.002 3.998-9.429 6.246-15.087 6.246h-810.667c-5.658 0-11.084-2.249-15.085-6.246-4.001-4.002-6.249-9.429-6.249-15.087-3.252-73.95-31.708-144.563-80.64-200.107-2.472-3.166-4.020-6.955-4.472-10.944-0.452-3.994 0.21-8.030 1.912-11.669 1.759-3.593 4.492-6.613 7.887-8.725s7.315-3.23 11.313-3.221h384c5.658 0 11.084 2.249 15.085 6.246 4.001 4.002 6.249 9.429 6.249 15.087v64c0 22.63 8.99 44.335 24.994 60.339s37.709 24.994 60.339 24.994c22.63 0 44.335-8.99 60.339-24.994s24.994-37.709 24.994-60.339v-64c0-5.658 2.249-11.085 6.246-15.087 4.002-3.998 9.429-6.246 15.087-6.246h384c3.998-0.009 7.919 1.109 11.315 3.221 3.392 2.112 6.127 5.133 7.885 8.725 1.702 3.639 2.364 7.676 1.911 11.669-0.452 3.989-2.001 7.778-4.471 10.944zM106.667 256h810.667c5.658 0 11.085 2.249 15.087 6.251 3.998 4.002 6.246 9.425 6.246 15.083v187.307c-0.030 6.037-1.335 12.002-3.84 17.493l-66.987 151.469c-2.505 5.494-3.81 11.456-3.84 17.493v22.613c-0.021 3.682 0.909 7.306 2.705 10.521 1.792 3.215 4.39 5.911 7.535 7.825l64.427 37.547c6.75 4.099 12.228 9.992 15.825 17.021 3.601 7.029 5.18 14.918 4.561 22.791-0.623 7.872-3.413 15.418-8.068 21.798-4.651 6.38-10.982 11.343-18.291 14.337l-85.333 34.987c-4.885 1.884-10.15 2.557-15.351 1.963s-10.18-2.439-14.515-5.376c-4.356-2.898-7.919-6.833-10.377-11.45s-3.733-9.773-3.703-15.003v-159.573c-0.030-6.037-1.335-12-3.84-17.493l-70.4-151.469c-2.505-5.491-3.81-11.456-3.84-17.493v-101.973c0-5.658-2.249-11.081-6.246-15.083-4.002-4.002-9.429-6.251-15.087-6.251h-21.333c-5.658 0-11.085 2.249-15.087 6.251-3.998 4.002-6.246 9.425-6.246 15.083v185.602c-0.064 8.364-2.586 16.524-7.253 23.466l-102.827 154.454c-4.745 7.063-7.27 15.383-7.253 23.893v39.253c-0.29 4.008 0.555 8.016 2.441 11.564 1.89 3.548 4.74 6.49 8.226 8.489l62.293 37.547c6.737 4.134 12.19 10.059 15.757 17.111 3.563 7.053 5.103 14.958 4.437 22.833-0.661 7.875-3.503 15.411-8.196 21.768-4.698 6.357-11.063 11.285-18.398 14.234l-85.333 34.987c-4.885 1.884-10.15 2.558-15.351 1.963s-10.18-2.439-14.515-5.377c-4.356-2.898-7.919-6.832-10.377-11.45s-3.733-9.773-3.703-15.004v-177.92c0.017-8.51-2.509-16.831-7.253-23.893l-104.107-154.454c-4.666-6.942-7.188-15.102-7.253-23.466v-185.602c0-5.658-2.248-11.081-6.249-15.083s-9.427-6.251-15.085-6.251h-21.333c-5.658 0-11.084 2.249-15.085 6.251s-6.249 9.425-6.249 15.083v101.973c-0.028 6.037-1.337 12.002-3.84 17.493l-66.987 151.469c-2.503 5.494-3.812 11.456-3.84 17.493v22.613c-0.021 3.682 0.911 7.306 2.705 10.521s4.39 5.911 7.535 7.825l64.427 37.547c6.749 4.099 12.228 9.992 15.827 17.021s5.176 14.918 4.557 22.791c-0.619 7.872-3.411 15.418-8.064 21.798s-10.986 11.343-18.293 14.337l-85.333 34.987c-4.884 1.884-10.152 2.557-15.353 1.963s-10.181-2.439-14.514-5.376c-4.355-2.898-7.921-6.833-10.378-11.45s-3.73-9.773-3.702-15.003v-159.573c-0.028-6.037-1.337-12-3.84-17.493l-70.4-151.469c-2.503-5.491-3.812-11.456-3.84-17.493v-187.307c0-5.658 2.248-11.081 6.249-15.083s9.427-6.251 15.085-6.251zM512 512c8.439 0 16.687-2.5 23.706-7.189 7.014-4.689 12.484-11.349 15.714-19.149 3.23-7.795 4.075-16.375 2.428-24.649-1.647-8.277-5.709-15.881-11.678-21.85-5.965-5.965-13.568-10.031-21.845-11.674-8.277-1.647-16.858-0.802-24.653 2.428s-14.46 8.695-19.149 15.714c-4.689 7.014-7.189 15.266-7.189 23.701 0 11.319 4.497 22.17 12.497 30.174 8 8 18.854 12.493 30.17 12.493z" />
<glyph unicode="&#xe903;" glyph-name="Archive-Minimalistic--Streamline-Solar-1" d="M108.564 587.518c20.453 40.141 53.089 72.777 93.23 93.23 45.635 23.252 105.373 23.252 224.851 23.252h170.666c119.479 0 179.217 0 224.853-23.252 40.141-20.453 72.777-53.089 93.227-93.23 23.253-45.635 23.253-105.372 23.253-224.851s0-179.217-23.253-224.853c-20.45-40.141-53.086-72.777-93.227-93.227-45.636-23.253-105.374-23.253-224.853-23.253h-170.666c-119.478 0-179.217 0-224.851 23.253-40.141 20.45-72.777 53.086-93.23 93.227-23.252 45.636-23.252 105.374-23.252 224.853s0 179.217 23.252 224.851zM642.517 426.688c11.767 13.184 10.624 33.412-2.56 45.18-13.184 11.772-33.412 10.628-45.18-2.556l-128.512-143.932-37.082 41.532c-11.772 13.184-32.001 14.327-45.184 2.556-13.183-11.767-14.328-31.996-2.558-45.18l60.951-68.267c6.071-6.801 14.754-10.688 23.872-10.688 9.114 0 17.796 3.887 23.868 10.688l152.384 170.667zM876.13 812.172c-62.481 62.484-163.051 62.484-364.181 62.484-201.132 0-301.699 0-364.182-62.484-32.32-32.319-47.922-74.828-55.454-136.171 22.642 25.201 49.847 46.195 80.397 61.761 33.343 16.989 69.047 23.879 108.578 27.109 38.192 3.12 85.186 3.12 142.647 3.119h176.027c57.463 0.001 104.457 0.001 142.647-3.119 39.535-3.23 75.238-10.119 108.578-27.109 30.549-15.566 57.758-36.559 80.397-61.761-7.531 61.344-23.134 103.852-55.454 136.171z" />
<glyph unicode="&#xe904;" glyph-name="Arrow-Outward-Fill--Streamline-Outlined-Fill-Material-Symbols-1" d="M258.133 198.4l-44.8 44.8 439.467 439.467h-403.2v64h512v-512h-64v403.2l-439.467-439.467z" />
<glyph unicode="&#xe906;" glyph-name="Bill-List--Streamline-Solar-2" d="M309.121 874.667h405.759c49.446 0 74.167 0 94.106-6.938 37.811-13.156 67.494-43.715 80.273-82.639 6.741-20.527 6.741-45.977 6.741-96.879v-597.51c0-36.617-42.027-56.047-68.612-31.718-15.62 14.293-39.155 14.293-54.775 0l-20.612-18.863c-27.375-25.050-68.625-25.050-96 0s-68.625 25.050-96 0c-27.375-25.050-68.625-25.050-96 0s-68.625 25.050-96 0c-27.375-25.050-68.625-25.050-96 0l-20.612 18.863c-15.619 14.293-39.156 14.293-54.775 0-26.586-24.329-68.612-4.898-68.612 31.718v597.51c0 50.902 0 76.352 6.739 96.879 12.78 38.924 42.465 69.483 80.275 82.639 19.939 6.938 44.661 6.938 94.107 6.938zM298.667 672c-17.673 0-32-14.327-32-32s14.327-32 32-32h21.333c17.673 0 32 14.327 32 32s-14.327 32-32 32h-21.333zM448 672c-17.673 0-32-14.327-32-32s14.327-32 32-32h277.333c17.673 0 32 14.327 32 32s-14.327 32-32 32h-277.333zM298.667 522.667c-17.673 0-32-14.327-32-32s14.327-32 32-32h21.333c17.673 0 32 14.327 32 32s-14.327 32-32 32h-21.333zM448 522.667c-17.673 0-32-14.327-32-32s14.327-32 32-32h277.333c17.673 0 32 14.327 32 32s-14.327 32-32 32h-277.333zM298.667 373.333c-17.673 0-32-14.327-32-32s14.327-32 32-32h21.333c17.673 0 32 14.327 32 32s-14.327 32-32 32h-21.333zM448 373.333c-17.673 0-32-14.327-32-32s14.327-32 32-32h277.333c17.673 0 32 14.327 32 32s-14.327 32-32 32h-277.333z" />
<glyph unicode="&#xe907;" glyph-name="Box-Minimalistic--Streamline-Solar-1" d="M749.995 770.922l-85.333 44.781c-74.906 39.309-112.358 58.964-152.649 58.964s-77.743-19.655-152.65-58.964l-85.333-44.781c-75.68-39.715-120.166-63.060-147.738-94.285l385.721-192.861 385.719 192.861c-27.571 31.224-72.055 54.57-147.738 94.285zM927.932 620.187l-383.932-191.963v-402.795c30.63 7.629 65.485 25.92 120.649 54.869l85.333 44.779c91.806 48.179 137.707 72.265 163.196 115.55s25.489 97.152 25.489 204.877v4.992c0 80.751 0 131.239-10.735 169.691zM480 25.429v402.795l-383.93 191.963c-10.737-38.452-10.737-88.94-10.737-169.691v-4.992c0-107.725 0-161.591 25.489-204.877s71.391-67.371 163.195-115.55l85.333-44.779c55.166-28.949 90.019-47.241 120.649-54.869z" />
<glyph unicode="&#xe908;" glyph-name="Command--Streamline-Solar-1" d="M682.667 618.666l128-0.020c70.694-0.011 128.009 57.288 128.021 127.98 0.009 70.692-57.289 128.009-127.983 128.020-70.69 0.011-128.009-57.287-128.017-127.98l-0.021-128-341.313 0.001-0.020 127.999c-0.011 70.693-57.328 127.991-128.020 127.98s-127.991-57.328-127.98-128.020c0.011-70.692 57.328-127.991 128.020-127.98l128 0.021-0.020-341.333h341.333v341.332zM682.667 277.333l128-0.021c70.694 0.013 128.009-57.289 128.021-127.979 0.009-70.694-57.289-128.009-127.983-128.021-70.69-0.009-128.009 57.289-128.017 127.979l-0.021 128.043zM213.353 277.312l128-0.021-0.020-128c-0.011-70.69-57.328-127.987-128.020-127.979-70.693 0.013-127.991 57.327-127.98 128.021 0.011 70.69 57.328 127.991 128.020 127.979z" />
<glyph unicode="&#xe909;" glyph-name="Design-Services-Fill--Streamline-Rounded-Fill-Material-Symbols-1" d="M380.805 483.204l96 95.998-80 80-28.8-28.8c-6.4-6.4-13.867-9.6-22.4-9.6s-16 3.2-22.4 9.6c-6.4 6.4-9.6 13.867-9.6 22.4s3.2 16 9.6 22.4l28.8 28.8-80 78.933-96.001-96 204.801-203.732zM749.871 112.004l96 97.067-80 80-28.8-28.8c-6.4-6.4-13.867-9.6-22.4-9.6s-16 3.2-22.4 9.6c-6.4 6.4-9.6 13.867-9.6 22.4s3.2 16 9.6 22.4l28.8 28.8-78.933 78.933-96-96 203.733-204.8zM657.071 666.669l74.667-74.667 100.267 100.267-74.667 74.666-100.267-100.266zM160.004 64.004c-9.245 0-16.889 3.021-22.933 9.067-6.045 6.042-9.067 13.687-9.067 22.933v121.6c0 4.267 0.711 8.175 2.133 11.733 1.422 3.554 3.911 7.108 7.467 10.667l197.334 197.333-215.468 215.465c-9.956 9.954-14.756 21.333-14.4 34.133s5.155 24.177 14.4 34.133l117.334 119.466c9.954 9.955 21.333 14.933 34.133 14.933s24.177-4.978 34.133-14.933l217.6-216.533 189.867 189.866c6.4 6.4 13.513 11.022 21.333 13.867s15.646 4.267 23.467 4.267c7.821 0 15.646-1.423 23.467-4.267s14.933-7.467 21.333-13.867l75.733-75.733c6.4-6.4 11.021-13.513 13.867-21.333 2.846-7.823 4.267-15.646 4.267-23.467 0-7.823-1.421-15.646-4.267-23.467-2.846-7.823-7.467-14.933-13.867-21.333l-189.867-189.865 216.533-216.533c9.954-9.958 14.933-21.333 14.933-34.133s-4.979-24.179-14.933-34.133l-118.4-117.333c-9.954-9.958-21.333-14.933-34.133-14.933s-24.179 4.975-34.133 14.933l-215.467 215.467-198.4-198.4c-3.556-3.558-7.113-6.046-10.667-7.467-3.556-1.425-7.467-2.133-11.733-2.133h-121.601z" />
<glyph unicode="&#xe90a;" glyph-name="Eye--Streamline-Solar-1" d="M416 448c0 53.018 42.982 96 96 96s96-42.982 96-96c0-53.018-42.982-96-96-96s-96 42.982-96 96zM85.333 448c0 69.948 18.132 93.503 54.395 140.615 72.408 94.070 193.844 200.718 372.271 200.718s299.861-106.648 372.271-200.718c36.262-47.113 54.396-70.668 54.396-140.615s-18.133-93.504-54.396-140.617c-72.41-94.067-193.843-200.717-372.271-200.717s-299.863 106.65-372.271 200.717c-36.264 47.113-54.395 70.669-54.395 140.617zM512 608c-88.366 0-160-71.634-160-160s71.634-160 160-160c88.367 0 160 71.633 160 160s-71.633 160-160 160z" />
<glyph unicode="&#xe90b;" glyph-name="Folder-With-Files--Streamline-Solar-1" d="M88.32 735.659c6.377 33.711 22.767 64.761 47.032 89.018s55.276 40.637 88.989 47.004c15.701 2.987 34.517 2.987 72.192 2.987 16.469 0 24.747 0 32.683-0.725 34.173-3.197 66.589-16.625 93.013-38.528 8.213-7.183 16.098-14.728 23.637-22.613l23.467-23.467c34.816-34.773 52.224-52.224 73.045-63.787 11.443-6.378 23.586-11.418 36.181-15.019 22.955-6.528 47.573-6.528 96.768-6.528h15.957c112.299 0 168.491 0 204.971-32.811 3.354-3.028 6.545-6.233 9.557-9.6 32.853-36.48 32.853-92.672 32.853-204.971v-93.952c0-160.896 0-241.365-50.005-291.328-49.963-50.005-130.432-50.005-291.328-50.005h-170.667c-160.896 0-241.365 0-291.328 50.005-50.005 49.963-50.005 130.432-50.005 291.328v300.8c0 37.632 0 56.491 2.987 72.192zM554.667 565.333c-8.486 0-16.627-3.372-22.626-9.373-6.003-6.001-9.374-14.141-9.374-22.627s3.371-16.627 9.374-22.626c5.999-6.003 14.14-9.374 22.626-9.374h213.333c8.486 0 16.627 3.371 22.626 9.374 6.003 5.999 9.374 14.14 9.374 22.626s-3.371 16.626-9.374 22.627c-5.999 6.001-14.14 9.373-22.626 9.373h-213.333zM724.736 831.147c-6.571 0.853-14.379 0.853-29.995 0.853h-182.741l15.787-16.341c28.416-29.44 39.339-40.448 51.968-47.701 7.296-4.224 15.104-7.552 23.125-9.941 13.909-4.096 29.141-4.309 69.333-4.309h14.251c42.752 0 77.227 0 104.533-3.584 6.827-0.853 13.355-2.005 19.669-3.456-7.936 44.245-42.496 78.507-85.931 84.48z" />
<glyph unicode="&#xe90c;" glyph-name="Handshake--Streamline-Font-Awesome-1" d="M517.329 715.79l-151.781-122.931c-25.245-20.384-30.106-57.075-10.976-83.261 20.227-27.913 59.584-33.399 86.712-12.233l155.699 121.051c10.978 8.467 26.658 6.586 35.281-4.39s6.588-26.656-4.39-35.28l-32.772-25.402 217.954-200.705v296.039h-1.097l-119.953 76.832c-23.991 15.366-52.058 23.52-80.597 23.52-34.18 0-67.422-11.76-94.080-33.242zM553.079 520.73l-81.062-63.031c-49.393-38.575-121.051-28.54-158.056 22.263-34.81 47.825-26.029 114.621 19.913 151.783l130.458 105.527c-18.189 7.683-37.789 11.603-57.703 11.603-29.478 0.157-58.173-8.624-82.79-24.931l-112.896-75.264v-351.233h44.218l143.315-130.769c30.733-28.070 78.243-25.873 106.309 4.86 8.627 9.566 14.426 20.698 17.408 32.299l26.654-24.461c30.575-28.066 78.242-26.027 106.313 4.548 7.053 7.684 12.228 16.623 15.522 25.873 30.417-20.386 71.812-16.149 97.374 11.759 28.066 30.575 26.027 78.242-4.548 106.313l-210.428 192.862zM35.328 648.679c-13.798 0-25.088-11.29-25.088-25.088v-326.145c0-27.755 22.422-50.176 50.176-50.176h50.176c27.754 0 50.176 22.421 50.176 50.176v351.233h-125.44zM85.504 347.622c19.313 0 31.383-20.907 21.727-37.632-4.481-7.761-12.764-12.544-21.727-12.544-19.313 0-31.383 20.907-21.727 37.632 4.481 7.761 12.764 12.544 21.727 12.544zM863.232 648.679v-351.233c0-27.755 22.421-50.176 50.176-50.176h50.176c27.755 0 50.176 22.421 50.176 50.176v326.145c0 13.798-11.29 25.088-25.088 25.088h-125.44zM913.408 322.534c0 19.315 20.907 31.386 37.632 21.726 7.761-4.48 12.544-12.762 12.544-21.726 0-19.311-20.907-31.381-37.632-21.726-7.761 4.48-12.544 12.762-12.544 21.726z" />
<glyph unicode="&#xe90d;" glyph-name="Hand-Shake--Streamline-Solar-1" d="M188.302 198.016c15.267 8.9 34.86 3.742 43.763-11.524 35.279-60.501 89.214-106.249 155.726-135.936 16.139-7.202 23.383-26.125 16.18-42.266-7.203-16.137-26.125-23.381-42.263-16.179-77.291 34.496-142.136 88.759-184.929 162.142-8.903 15.266-3.744 34.859 11.523 43.763zM806.66 792.664c-43.26 44.18-104.956 60.477-165.355 43.291-16.998-4.837-34.697 5.022-39.535 22.021-4.834 16.998 5.022 34.7 22.020 39.536 82.697 23.53 168.734 1.065 228.595-60.072 12.365-12.628 12.151-32.888-0.474-45.252-12.629-12.365-32.887-12.151-45.252 0.476zM477.423 818.844c-9.131 15.662-35.746 25.16-62.784 9.708-26.938-15.395-31.676-42.533-22.702-57.922l107.762-184.794c8.9-15.267 3.742-34.86-11.524-43.763-15.266-8.906-34.859-3.744-43.763 11.523l-143.682 246.392c-9.133 15.662-35.749 25.16-62.786 9.708-26.938-15.395-31.676-42.533-22.701-57.922l161.642-277.189c8.903-15.266 3.744-34.863-11.523-43.763-15.267-8.909-34.86-3.746-43.763 11.524l-71.841 123.193c-9.133 15.662-35.749 25.16-62.786 9.708-26.938-15.395-31.676-42.533-22.701-57.923l161.642-277.193c68.648-117.722 238.051-155.925 381.706-73.818 143.561 82.044 194.59 245.943 126.101 363.396l-107.759 184.793c-9.135 15.662-35.75 25.16-62.788 9.708-26.935-15.395-31.676-42.533-22.699-57.923l71.838-123.196c4.301-7.373 5.478-16.156 3.268-24.399-2.21-8.247-7.62-15.266-15.031-19.503-65.813-37.611-85.982-110.336-57.169-159.744 8.905-15.27 3.746-34.863-11.524-43.763-15.266-8.905-34.859-3.746-43.763 11.52-38.942 66.782-23.206 147.196 27.093 204.028 14.063 15.889 18.876 39.001 8.188 57.33l-145.95 250.282z" />
<glyph unicode="&#xe90e;" glyph-name="Hierarchy-5-Organize--Streamline-Ultimate-3" d="M245.335 960c-16.974 0-33.253-6.743-45.255-18.745s-18.745-28.281-18.745-45.255v-213.333c0-16.974 6.743-33.253 18.745-45.255s28.281-18.745 45.255-18.745h223.999v-181.333h-277.332c-28.29 0-55.421-11.238-75.425-31.241-20.004-20.006-31.242-47.138-31.242-75.426v-145.92c-28.48-10.065-52.484-29.875-67.77-55.927s-20.869-56.67-15.763-86.443c5.106-29.773 20.573-56.777 43.667-76.25 23.094-19.469 52.327-30.148 82.533-30.148s59.439 10.679 82.533 30.148c23.094 19.473 38.561 46.477 43.667 76.25s-0.477 60.39-15.763 86.443c-15.286 26.052-39.29 45.862-67.77 55.927v145.92c0 5.658 2.248 11.085 6.249 15.087 4 3.998 9.427 6.246 15.085 6.246h277.332v-167.253c-28.48-10.065-52.483-29.875-67.769-55.927s-20.87-56.67-15.763-86.443c5.106-29.773 20.573-56.777 43.668-76.25 23.091-19.469 52.326-30.148 82.53-30.148 30.208 0 59.439 10.679 82.534 30.148 23.095 19.473 38.562 46.477 43.665 76.25 5.107 29.773-0.474 60.39-15.761 86.443s-39.292 45.862-67.772 55.927v167.253h277.333c5.658 0 11.085-2.249 15.087-6.246 4.002-4.002 6.246-9.429 6.246-15.087v-145.92c-28.48-10.065-52.484-29.875-67.767-55.927-15.287-26.052-20.873-56.67-15.765-86.443s20.574-56.777 43.669-76.25c23.091-19.469 52.326-30.148 82.53-30.148 30.208 0 59.439 10.679 82.534 30.148 23.095 19.473 38.562 46.477 43.665 76.25 5.107 29.773-0.474 60.39-15.761 86.443s-39.292 45.862-67.772 55.927v145.92c0 28.288-11.238 55.42-31.241 75.426-20.002 20.002-47.134 31.241-75.426 31.241h-277.333v181.333h224c16.977 0 33.254 6.743 45.257 18.745s18.743 28.281 18.743 45.255v213.333c0 16.974-6.741 33.253-18.743 45.255s-28.279 18.745-45.257 18.745h-533.332z" />
<glyph unicode="&#xe90f;" glyph-name="Lightbulb-Bolt--Streamline-Solar-1" d="M490.667 874.667c-176.731 0-320-146.601-320-327.442 0-96.955 41.217-184.097 106.607-244.010 21.795-19.968 37.94-34.765 49.383-45.5 5.721-5.363 10.095-9.557 13.324-12.774 1.609-1.604 2.84-2.876 3.757-3.857 0.454-0.486 0.795-0.866 1.043-1.152 0.243-0.277 0.358-0.418 0.358-0.418 10.091-12.745 12.275-16.034 13.576-19.012s2.237-6.835 4.783-23.027c1.005-6.396 1.108-17.344 1.108-47.147v-1.28c0-17.455-0.001-32.512 1.093-44.868 1.158-13.065 3.72-26.001 10.599-38.195 7.66-13.577 18.677-24.849 31.944-32.687 11.916-7.040 24.56-9.66 37.326-10.846 12.075-1.118 26.79-1.118 43.849-1.118h2.5c17.058 0 31.774 0 43.849 1.118 12.766 1.186 25.408 3.806 37.325 10.846 13.269 7.838 24.286 19.11 31.945 32.687 6.882 12.194 9.442 25.131 10.598 38.195 1.097 12.356 1.097 27.413 1.092 44.868v1.28c0 29.803 0.107 40.751 1.109 47.147 2.547 16.192 3.482 20.049 4.783 23.027s3.486 6.268 13.577 19.012c0 0 0.107 0.128 0.358 0.418 0.247 0.286 0.589 0.666 1.041 1.152 0.917 0.981 2.15 2.253 3.759 3.857 3.23 3.217 7.603 7.411 13.325 12.774 11.443 10.735 27.588 25.532 49.382 45.5 65.391 59.913 106.607 147.055 106.607 244.010 0 180.841-143.27 327.442-320 327.442zM558.298 120.559c-0.128-4.139-0.32-7.753-0.606-11.004-0.794-8.939-2.129-12.181-3.042-13.803-2.556-4.527-6.225-8.282-10.65-10.897-1.583-0.934-4.757-2.3-13.487-3.11-9.135-0.849-21.184-0.879-39.846-0.879s-30.711 0.030-39.846 0.879c-8.73 0.811-11.904 2.176-13.487 3.11-4.425 2.615-8.094 6.37-10.65 10.897-0.913 1.621-2.249 4.864-3.040 13.803-0.288 3.251-0.479 6.865-0.606 11.004h135.26zM538.048 611.137c13.073-9.556 16.098-28.147 6.763-41.524l-50.261-72h59.836c10.897 0 20.881-6.234 25.865-16.145 4.988-9.916 4.139-21.85-2.193-30.925l-83.119-119.070c-9.335-13.376-27.507-16.478-40.58-6.921s-16.102 28.147-6.763 41.523l50.261 72h-59.836c-10.897 0-20.88 6.234-25.866 16.149-4.986 9.911-4.14 21.85 2.194 30.921l83.115 119.071c9.34 13.378 27.507 16.476 40.585 6.921z" />
<glyph unicode="&#xe910;" glyph-name="Lightbulb-Minimalistic--Streamline-Solar1-1" d="M394.667 161.749c0 17.899 14.327 32.405 32 32.405h170.667c17.673 0 32-14.507 32-32.405 0-17.894-14.327-32.405-32-32.405h-170.667c-17.673 0-32 14.511-32 32.405zM423.111 53.734c0 17.899 14.329 32.405 32.001 32.405h113.775c17.673 0 32-14.507 32-32.405s-14.327-32.405-32-32.405h-113.775c-17.673 0-32.001 14.507-32.001 32.405zM316.185 369.993l47.106-44.902c13.216-12.595 20.709-30.157 20.709-48.533 0-27.61 22.101-49.993 49.365-49.993h157.269c27.264 0 49.365 22.383 49.365 49.993 0 18.377 7.492 35.938 20.71 48.533l47.104 44.902c65.758 63.155 102.477 146.129 102.848 232.388l0.004 3.623c0 147.386-133.717 268.663-298.667 268.663s-298.667-121.277-298.667-268.663l0.003-3.623c0.37-86.259 37.091-169.233 102.848-232.388z" />
<glyph unicode="&#xe911;" glyph-name="Loading-Horizontal-2--Streamline-Plump-1" d="M714.667 448c0 111.93-90.735 202.667-202.667 202.667-111.93 0-202.667-90.737-202.667-202.667 0-111.932 90.737-202.667 202.667-202.667 111.932 0 202.667 90.735 202.667 202.667zM266.667 448c0 64.802-52.531 117.333-117.333 117.333s-117.333-52.531-117.333-117.333c0-64.802 52.532-117.333 117.333-117.333s117.333 52.531 117.333 117.333zM874.667 565.333c64.802 0 117.333-52.531 117.333-117.333s-52.531-117.333-117.333-117.333c-64.802 0-117.333 52.531-117.333 117.333s52.531 117.333 117.333 117.333z" />
<glyph unicode="&#xe913;" glyph-name="Proto-Io-Logo-2--Streamline-Logos-Block-1" d="M213.333 917.333h597.333c45.265 0 88.674-17.981 120.678-49.987 32.009-32.006 49.988-75.416 49.988-120.68v-597.333c0-45.265-17.98-88.674-49.988-120.678-32.004-32.009-75.413-49.988-120.678-49.988h-597.333c-45.264 0-88.673 17.98-120.68 49.988-32.006 32.004-49.987 75.413-49.987 120.678v597.333c0 45.264 17.981 88.673 49.987 120.68s75.416 49.987 120.68 49.987zM512 106.667c57.877-0.017 114.807 14.686 165.444 42.722 50.633 28.036 93.303 68.489 124.006 117.551 30.699 49.062 48.422 105.131 51.499 162.923 3.072 57.796-8.597 115.426-33.92 167.471-24.576-17.707-49.323-34.005-81.92-55.296-14.464-7.125-36.309-15.104-55.339-21.547-10.59-3.567-21.227-6.98-31.915-10.24-8.789-2.688-16.128-9.941-13.099-20.139 3.072-10.24 13.312-12.245 22.187-9.6 17.438 5.316 34.739 11.081 51.883 17.28-26.581-70.272-73.643-168.832-117.547-179.84v152.32c-20.48-3.627-37.419-1.109-48.768 10.24s-13.867 28.288-10.24 48.768h-152.32c11.008 43.861 109.355 90.88 179.627 117.461-5.321-14.688-10.257-29.513-14.805-44.459l-2.304-7.509c-2.603-8.832-0.555-19.029 9.728-22.016 10.155-2.987 17.408 4.309 20.011 13.099 3.136 10.541 6.468 21.025 9.984 31.445 6.272 18.859 14.208 40.576 21.333 55.040 21.547 32.939 37.973 57.941 55.765 82.688-46.161 22.423-96.789 34.148-148.109 34.302s-102.015-11.266-148.312-33.411c-46.297-22.145-87.005-54.444-119.094-94.496s-54.735-86.823-66.25-136.835c-11.516-50.014-11.605-101.978-0.263-152.030s33.825-96.9 65.776-137.062c31.951-40.162 72.546-72.602 118.766-94.908s96.876-33.903 148.196-33.924zM341.333 277.333c0 77.568 77.653 170.667 124.117 186.197 0 0-46.549-46.549-15.531-77.568 31.061-31.061 77.611 15.531 77.611 15.531-15.531-46.592-108.629-124.16-186.197-124.16zM744.704 641.92c-0.333 10.069-4.527 19.614-11.767 26.619s-16.922 10.921-26.995 10.921c-10.074 0-19.755-3.916-26.995-10.921s-11.477-16.55-11.81-26.619c-0.247-5.246 0.576-10.488 2.411-15.408 1.839-4.92 4.659-9.416 8.282-13.216 3.627-3.799 7.987-6.825 12.813-8.891 4.83-2.067 10.027-3.132 15.279-3.132s10.449 1.065 15.279 3.132c4.826 2.066 9.186 5.091 12.813 8.891 3.622 3.8 6.443 8.296 8.282 13.216 1.835 4.92 2.658 10.161 2.411 15.408z" />
<glyph unicode="&#xe914;" glyph-name="Puzzle" d="M109.714 960h356.573v-84.704c-8.909 1.589-18.074 2.419-27.43 2.419-85.84 0-155.428-69.588-155.428-155.429s69.588-155.429 155.428-155.429c9.357 0 18.522 0.829 27.43 2.419v-75.563h-146.795c-18.030 0-34.376-10.598-41.734-27.059s-4.354-35.708 7.671-49.139c10.161-11.354 16.286-26.236 16.286-42.658 0-35.345-28.654-64-64-64s-64 28.655-64 64c0 16.422 6.124 31.305 16.286 42.658 12.025 13.431 15.029 32.678 7.671 49.139s-23.704 27.059-41.734 27.059h-155.937v356.573c0 60.593 49.121 109.714 109.714 109.714zM0 402.287v-356.574c0-60.591 49.121-109.713 109.714-109.713h356.573v155.934c0 18.035 10.598 34.377 27.059 41.737 16.461 7.356 35.708 4.356 49.139-7.667 11.354-10.167 26.236-16.29 42.658-16.29 35.345 0 64 28.659 64 64 0 35.345-28.655 64-64 64-16.422 0-31.305-6.123-42.658-16.286-13.431-12.028-32.678-15.027-49.139-7.667s-27.059 23.701-27.059 41.732v146.795h-75.563c1.59-8.909 2.419-18.074 2.419-27.43 0-85.841-69.588-155.426-155.429-155.426s-155.429 69.585-155.429 155.426c0 9.357 0.829 18.522 2.419 27.43h-84.704zM557.713 402.287v-75.563c8.909 1.587 18.074 2.419 27.43 2.419 85.841 0 155.426-69.589 155.426-155.43s-69.585-155.426-155.426-155.426c-9.357 0-18.522 0.823-27.43 2.419v-84.706h356.574c60.591 0 109.713 49.122 109.713 109.713v356.574h-155.934c-18.035 0-34.377 10.598-41.737 27.059-7.356 16.461-4.356 35.708 7.667 49.139 10.167 11.354 16.29 26.236 16.29 42.658 0 35.345-28.659 64-64 64-35.345 0-64-28.654-64-64 0-16.422 6.123-31.305 16.286-42.658 12.028-13.431 15.027-32.678 7.667-49.139s-23.701-27.059-41.732-27.059h-146.795zM1024 493.713v356.573c0 60.593-49.122 109.714-109.713 109.714h-356.574v-155.937c0-18.030-10.598-34.376-27.059-41.734s-35.708-4.354-49.139 7.671c-11.354 10.161-26.236 16.286-42.658 16.286-35.345 0-64-28.654-64-64s28.654-64 64-64c16.422 0 31.305 6.124 42.658 16.286 13.431 12.024 32.678 15.029 49.139 7.671s27.059-23.704 27.059-41.734v-146.795h75.563c-1.587 8.909-2.419 18.074-2.419 27.43 0 85.84 69.589 155.428 155.43 155.428s155.426-69.587 155.426-155.428c0-9.357-0.823-18.522-2.419-27.43h84.706z" />
<glyph unicode="&#xe915;" glyph-name="Reseach" d="M448 96.004c-64.706-0.026-128.684 13.645-187.732 40.107-1.581 0.819-3.338 1.25-5.12 1.25s-3.539-0.431-5.12-1.25c-1.463-0.99-2.657-2.325-3.476-3.891-0.819-1.562-1.237-3.307-1.217-5.069v-85.333c0-5.658 2.247-11.085 6.248-15.087s9.427-6.246 15.085-6.246h53.333c2.829 0 5.542-1.126 7.542-3.127 2.001-1.997 3.124-4.71 3.124-7.539v-52.48c0-5.658 2.248-11.085 6.248-15.087s9.427-6.246 15.085-6.246h213.332c5.658 0 11.085 2.244 15.087 6.246 3.998 4.002 6.246 9.429 6.246 15.087v53.333c0 2.829 1.126 5.542 3.123 7.539 2.001 2.001 4.715 3.127 7.543 3.127h53.333c5.658 0 11.085 2.244 15.087 6.246 3.998 4.002 6.246 9.429 6.246 15.087v93.867c0.017 1.813-0.448 3.597-1.348 5.171s-2.202 2.88-3.772 3.789c-1.54 0.943-3.311 1.438-5.12 1.438-1.805 0-3.58-0.495-5.12-1.438-64.64-32.798-136.154-49.762-208.64-49.493zM951.885 151.893l-176.213 176.213c-1.681 1.877-2.607 4.309-2.607 6.827s0.926 4.949 2.607 6.827c55.62 81.25 78.903 180.339 65.276 277.857-13.623 97.517-63.168 186.433-138.931 249.326-75.759 62.893-172.275 95.23-270.635 90.676s-191.473-45.672-261.098-115.297c-69.625-69.625-110.743-162.739-115.297-261.098s27.782-194.875 90.676-270.634c62.893-75.763 151.808-125.308 249.326-138.935 97.518-13.623 196.607 9.655 277.857 65.28 1.877 1.681 4.309 2.607 6.827 2.607s4.949-0.926 6.827-2.607l176.213-176.213c11.998-11.985 28.267-18.718 45.227-18.718s33.225 6.733 45.227 18.718c11.529 12.058 17.86 28.164 17.617 44.847-0.239 16.683-7.027 32.602-18.897 44.326zM363.511 637.013c0.453 1.63 1.32 3.115 2.516 4.311s2.681 2.063 4.311 2.516c1.375 0.747 2.915 1.138 4.48 1.138s3.105-0.391 4.48-1.138c36.569-22.922 78.87-35.050 122.027-34.987 14.319 0.189 28.595 1.617 42.667 4.267 0.593 0.3 1.254 0.457 1.92 0.457s1.323-0.156 1.92-0.457c0.388-1.104 0.388-2.309 0-3.413 0-25.46-10.116-49.879-28.117-67.882-18.005-18.005-42.423-28.117-67.883-28.117-25.461 0-49.879 10.112-67.883 28.117s-28.118 42.422-28.118 67.882c1.129 9.446 3.72 18.658 7.68 27.307zM138.658 564.906c-0.023 51.308 12.699 101.818 37.023 146.993s59.49 83.601 102.336 111.826c42.847 28.225 92.034 45.364 143.143 49.879s102.539-3.736 149.669-24.012c47.134-20.276 88.491-51.942 120.358-92.154s53.248-87.709 62.217-138.227c8.973-50.517 5.257-102.472-10.816-151.197s-43.998-92.698-81.263-127.962c-0.969-1.028-2.176-1.801-3.516-2.249-1.344-0.448-2.773-0.555-4.164-0.311-1.374 0.188-2.697 0.666-3.87 1.399-1.178 0.738-2.185 1.715-2.957 2.867-24.951 39.147-61.065 69.909-103.68 88.32-1.805 0.875-3.324 2.236-4.39 3.934-1.062 1.698-1.626 3.661-1.626 5.666s0.563 3.968 1.626 5.666c1.067 1.698 2.586 3.059 4.39 3.934 35.204 19.324 62.98 49.809 78.95 86.656 15.966 36.848 19.221 77.961 9.25 116.862-9.975 38.901-32.61 73.378-64.337 97.997s-70.746 37.982-110.903 37.982c-40.16 0-79.177-13.362-110.905-37.982s-54.361-59.096-64.335-97.997c-9.973-38.901-6.719-80.015 9.25-116.862s43.744-67.333 78.95-86.656c1.783-0.913 3.259-2.33 4.245-4.075s1.438-3.742 1.301-5.739c-0.11-2.057-0.813-4.036-2.025-5.705-1.211-1.664-2.879-2.944-4.802-3.682-45.924-17.050-83.919-50.483-106.667-93.867-0.669-1.442-1.679-2.701-2.942-3.669-1.263-0.964-2.743-1.609-4.311-1.877-1.461-0.717-3.066-1.088-4.693-1.088s-3.232 0.371-4.693 1.088c-33.376 29.197-60.094 65.216-78.349 105.626-18.255 40.414-27.621 84.271-27.465 128.614z" />
<glyph unicode="&#xe916;" glyph-name="Responsive-Design-Hand--Streamline-Ultimate-3" d="M704 448c-2.829 0-5.542-1.122-7.543-3.123s-3.123-4.715-3.123-7.543v-160c0-11.315 4.497-22.17 12.497-30.17s18.854-12.497 30.17-12.497h21.333c33.946 0 66.505 13.487 90.509 37.491s37.491 56.563 37.491 90.509v74.667c0 2.829-1.122 5.542-3.123 7.543s-4.715 3.123-7.543 3.123h-170.667zM564.907 384c0 16.973-6.746 33.254-18.748 45.257s-28.279 18.743-45.252 18.743c-16.973 0-33.254-6.741-45.257-18.743s-18.743-28.284-18.743-45.257v-320c0.060-2.202-0.567-4.369-1.788-6.204-1.225-1.835-2.982-3.243-5.039-4.036-2.112-0.631-4.356-0.649-6.474-0.043s-4.017 1.805-5.474 3.456l-54.613 65.28c-4.103 4.928-9.264 8.87-15.099 11.529s-12.196 3.968-18.607 3.831h-42.667c-7.219-0.102-14.293-2.035-20.561-5.619-6.268-3.58-11.525-8.695-15.279-14.861-4.015-6.391-6.144-13.786-6.144-21.333s2.13-14.942 6.144-21.333l72.96-133.12c0.955-1.655 2.321-3.034 3.965-4.006s3.512-1.502 5.422-1.54h456.961c2.534 0.051 4.975 0.969 6.916 2.598 1.937 1.63 3.264 3.874 3.75 6.362l19.627 130.987c1.186 8.905-0.649 17.95-5.214 25.685-4.561 7.735-11.593 13.717-19.959 16.981l-223.573 80.213c-2.103 0.777-3.921 2.167-5.214 3.998-1.297 1.826-2.005 4.002-2.039 6.242v174.933zM992 874.667c0 22.632-8.99 44.337-24.994 60.34s-37.709 24.994-60.339 24.994h-128c-22.63 0-44.335-8.99-60.339-24.994s-24.994-37.708-24.994-60.34v-277.333c0-22.632 8.99-44.337 24.994-60.34s37.709-24.994 60.339-24.994h128c22.63 0 44.335 8.99 60.339 24.994s24.994 37.708 24.994 60.34v277.333zM757.333 864c0 2.829 1.122 5.542 3.123 7.543s4.715 3.124 7.543 3.124h149.333c2.829 0 5.542-1.124 7.543-3.124s3.123-4.714 3.123-7.543v-234.667c0-2.829-1.122-5.542-3.123-7.543s-4.715-3.124-7.543-3.124h-149.333c-2.829 0-5.542 1.124-7.543 3.124s-3.123 4.714-3.123 7.543v234.667zM309.333 234.667c11.316 0 22.168 4.497 30.17 12.497s12.497 18.854 12.497 30.17c0 11.315-4.495 22.17-12.497 30.17s-18.854 12.497-30.17 12.497h-64c-5.658 0-11.084 2.249-15.085 6.246-4.001 4.002-6.249 9.429-6.249 15.087v384c0 5.658 2.248 11.084 6.249 15.085s9.427 6.249 15.085 6.249h320c11.315 0 22.17 4.495 30.17 12.497s12.497 18.854 12.497 30.17c0 11.316-4.497 22.168-12.497 30.17s-18.854 12.497-30.17 12.497h-405.333c-33.948 0-66.505-13.486-90.51-37.49s-37.49-56.562-37.49-90.51v-341.333c0-33.946 13.486-66.505 37.49-90.509s56.562-37.491 90.51-37.491h149.333z" />
<glyph unicode="&#xe917;" glyph-name="Ruler-Pen--Streamline-Solar-2" d="M536.994 46.327c24.994-24.994 65.22-24.994 145.673-24.994h85.333c80.452 0 120.678 0 145.673 24.994s24.994 65.22 24.994 145.673v512c0 80.453 0 120.68-24.994 145.673s-65.22 24.994-145.673 24.994h-85.333c-80.452 0-120.678 0-145.673-24.994-21.436-21.434-24.486-54.070-24.922-113.673h85.261c17.673 0 32-14.327 32-32s-14.327-32-32-32h-85.333v-64h128c17.673 0 32-14.327 32-32s-14.327-32-32-32h-128v-64h85.333c17.673 0 32-14.327 32-32s-14.327-32-32-32h-85.333v-64h128c17.673 0 32-14.327 32-32s-14.327-32-32-32h-128v-64h85.333c17.673 0 32-14.327 32-32s-14.327-32-32-32h-85.261c0.435-59.601 3.486-92.241 24.922-113.673zM341.333 311.74v340.452c-32.81-13.525-76.090-25.126-127.992-25.126-51.911 0-95.195 11.605-128.008 25.133v-340.458c0-26.564 0-39.851 1.612-52.885 1.901-15.377 5.471-30.502 10.648-45.107 4.389-12.382 10.33-24.265 22.211-48.026l62.656-125.312c5.847-11.695 17.8-19.081 30.874-19.081s25.027 7.386 30.874 19.081l62.656 125.312c11.881 23.761 17.822 35.644 22.211 48.026 5.177 14.605 8.747 29.73 10.648 45.107 1.612 13.035 1.612 26.321 1.612 52.885zM341.333 746.667c0 70.692-57.308 128-128 128s-128-57.308-128-128v-40.833c1.124-0.564 2.27-1.131 3.438-1.697 29.053-14.086 71.448-28.242 124.57-28.242s95.517 14.156 124.57 28.242c1.162 0.564 2.303 1.127 3.422 1.689v40.841z" />
<glyph unicode="&#xe918;" glyph-name="Shadow-Tech-Logo--Streamline-Logos-Block-1" d="M213.333 917.333c-45.264 0-88.673-17.981-120.68-49.987s-49.987-75.416-49.987-120.68v-597.333c0-45.265 17.981-88.674 49.987-120.678 32.006-32.009 75.416-49.988 120.68-49.988h597.333c45.265 0 88.674 17.98 120.678 49.988 32.009 32.004 49.988 75.413 49.988 120.678v597.333c0 45.264-17.98 88.673-49.988 120.68-32.004 32.006-75.413 49.987-120.678 49.987h-597.333zM330.027 736.896c44.774 28.174 95.483 45.556 148.126 50.773s105.779-1.873 155.213-20.71c49.429-18.838 93.811-48.908 129.63-87.835s62.101-85.649 76.77-136.476c14.669-50.825 17.323-104.367 7.753-156.395s-31.1-101.12-62.895-143.398c-31.795-42.283-72.981-76.591-120.307-100.228-47.326-23.633-99.499-35.942-152.401-35.959-10.795 0-21.376 0.981-32 1.963h-0.043c26.159 12.821 48.405 32.41 64.439 56.73 16.034 24.324 25.267 52.493 26.743 81.587 1.476 29.090-4.864 58.048-18.355 83.87-13.491 25.818-33.647 47.552-58.372 62.955s-53.124 23.906-82.246 24.631c-29.122 0.725-57.907-6.357-83.369-20.51s-46.673-34.863-61.431-59.977c-14.759-25.118-22.528-53.722-22.502-82.854 0.085-6.955 0.597-13.867 1.493-20.779-30.214 37.466-52.154 80.905-64.376 127.458s-14.452 95.168-6.54 142.643c7.911 47.478 25.784 92.742 52.442 132.816s61.498 74.051 102.229 99.696z" />
<glyph unicode="&#xe919;" glyph-name="Shrink-Window-Osx--Streamline-Sharp-1" d="M981.333 448c0 259.2-210.133 469.333-469.333 469.333s-469.333-210.133-469.333-469.333c0-259.2 210.133-469.333 469.333-469.333s469.333 210.133 469.333 469.333zM405.333 341.333h-192v85.333h277.333v-277.333h-85.333v192zM533.333 746.667h85.333v-192h192v-85.333h-277.333v277.333z" />
<glyph unicode="&#xe91a;" glyph-name="Smartphone-Rotate-Angle--Streamline-Solar-2" d="M810.667 576v-253.193c0-28.122-15.066-54.084-39.484-68.036-160.602-91.772-357.763-91.772-518.367 0-24.415 13.952-39.483 39.915-39.483 68.036v253.193c0 119.847 0 179.771 28.762 222.817 12.452 18.635 28.452 34.635 47.087 47.087 43.046 28.762 102.97 28.762 222.817 28.762s179.772 0 222.818-28.762c18.633-12.452 34.633-28.452 47.087-47.087 28.762-43.046 28.762-102.97 28.762-222.817zM384 778.667c-17.673 0-32-14.327-32-32s14.327-32 32-32h256c17.673 0 32 14.327 32 32s-14.327 32-32 32h-256zM154.765 339.874c10.976-13.854 8.643-33.98-5.209-44.954-24.476-19.396-32.223-36.489-32.223-49.587 0-11.371 5.723-25.579 23.334-41.971 17.657-16.435 44.951-32.713 81.358-47.049 51.647-20.335 118.409-35.507 193.975-42.577v19.597c0 12.557 7.343 23.953 18.778 29.141s24.845 3.209 34.295-5.060l64-56c6.942-6.076 10.927-14.852 10.927-24.081s-3.985-18.005-10.927-24.081l-64-56c-9.451-8.269-22.861-10.249-34.295-5.060s-18.778 16.585-18.778 29.141v28.143c-82.954 7.279-157.878 23.842-217.423 47.287-40.805 16.068-75.994 35.994-101.518 59.755-25.571 23.804-43.726 53.794-43.726 88.815 0 40.542 24.178 74.155 56.478 99.746 13.852 10.978 33.979 8.644 44.954-5.205zM869.235 339.874c10.974 13.85 31.1 16.183 44.954 5.205 32.299-25.591 56.478-59.2 56.478-99.746 0-58.799-49.839-102.852-108.655-132.326-61.513-30.822-145.596-52.638-240.119-62.217-17.583-1.783-33.28 11.025-35.063 28.608-1.779 17.583 11.029 33.284 28.612 35.063 89.498 9.071 165.419 29.47 217.899 55.765 55.177 27.648 73.327 55.625 73.327 75.106 0 13.099-7.748 30.191-32.222 49.587-13.854 10.974-16.183 31.1-5.21 44.954z" />
<glyph unicode="&#xe91b;" glyph-name="Starship--Streamline-Simple-Icons-1" d="M662.229 549.547c0-11.967-4.753-23.441-13.214-31.906-8.461-8.461-19.938-13.214-31.906-13.214s-23.441 4.753-31.906 13.214c-8.461 8.465-13.214 19.939-13.214 31.906s4.753 23.443 13.214 31.905c8.465 8.462 19.938 13.215 31.906 13.215s23.445-4.753 31.906-13.215c8.461-8.462 13.214-19.938 13.214-31.905zM1024 448c0-282.752-229.248-512-512-512-14.933 0-29.739 0.64-44.373 1.877 86.144 80.64 108.715 215.936 108.715 215.936l-137.643 44.928c0 0-63.957-137.813-238.891-156.587-62.214 47.778-112.595 109.239-147.244 179.614-34.649 70.379-52.634 147.789-52.564 226.231 0 282.752 229.248 512 512 512s512-229.248 512-512zM368.128 678.144c-52.48 5.547-80.427 35.413-86.614 86.656-6.059-49.451-32.853-80.213-86.699-86.656 49.835-9.685 78.080-39.168 86.656-86.699-0.853 49.237 28.416 77.867 86.656 86.699zM700.331 455.979c47.36 105.941 16.725 181.419-52.608 266.496-87.168-64-160.384-128.981-155.136-219.691-58.667-28.8-96.469-51.456-134.272-97.664l118.571-47.061-15.701-54.059 155.179-45.312 18.901 50.389 120.533-27.776c0.597 63.829-16.213 132.139-55.467 174.677z" />
<glyph unicode="&#xe91c;" glyph-name="Streets--Streamline-Solar-1" d="M147.817 812.183c-62.484-62.484-62.484-163.050-62.484-364.183 0-176.384 0-275.426 42.141-339.273l723.799 723.799c-63.846 42.14-162.889 42.14-339.273 42.14-201.133 0-301.699 0-364.183-62.484zM896.525 787.271l-339.268-339.271 339.268-339.273c42.142 63.846 42.142 162.889 42.142 339.273s0 275.427-42.142 339.271zM511.979 402.752l-339.27-339.268c63.843-42.142 162.887-42.142 339.27-42.142s275.426 0 339.273 42.142l-339.273 339.268z" />
<glyph unicode="&#xe91d;" glyph-name="Swimming--Streamline-Solar-1" d="M194.983 197.73c29.306 45.815 92.052 44.314 123.207 4.433 42.24-54.071 101.203-106.163 193.81-106.163 94.238 0 152.311 41.762 192.213 95.108 30.72 41.062 97.523 47.77 129.732-0.964 26.671-40.346 55.599-71.983 112.064-85.286 17.199-4.053 27.861-21.282 23.808-38.485s-21.286-27.861-38.49-23.808c-79.014 18.62-119.791 65.417-150.771 112.294-2.432 3.674-6.084 5.542-10.82 5.453-5.060-0.094-10.547-2.56-14.276-7.543-49.818-66.598-125.687-120.768-243.46-120.768-121.281 0-196.751 69.969-244.244 130.761-3.060 3.921-7.054 5.41-10.489 5.338-3.24-0.073-6.203-1.468-8.369-4.855-31.552-49.327-72.293-100.902-156.223-120.678-17.202-4.053-34.433 6.605-38.486 23.808s6.606 34.432 23.808 38.485c59.774 14.084 88.729 48.695 116.987 92.873zM946.010 318.191c-56.465 13.303-85.393 44.941-112.064 85.286-29.884 45.218-89.549 42.705-122.543 9.31l-50.069 56.546-277.3 314.276c-23.138 26.223-63.603 27.486-88.332 2.758-22.402-22.402-23.779-58.273-3.162-82.327l42.143-49.167c25.789-30.087-15.665-96.53-15.665-96.53l-105.753-127.398c-6.897-5.188-13.11-11.797-18.282-19.883-28.258-44.177-57.213-78.788-116.987-92.873-17.202-4.053-27.861-21.282-23.808-38.485s21.284-27.861 38.486-23.808c83.93 19.776 124.671 71.351 156.223 120.678 2.166 3.388 5.13 4.783 8.369 4.855 3.435 0.073 7.429-1.417 10.489-5.338 47.493-60.791 122.963-130.761 244.244-130.761 117.773 0 193.643 54.17 243.46 120.768 3.729 4.983 9.216 7.45 14.276 7.543 4.736 0.090 8.388-1.779 10.82-5.453 30.98-46.878 71.757-93.675 150.771-112.294 17.203-4.053 34.436 6.605 38.49 23.808s-6.609 34.432-23.808 38.485zM725.342 618.667c58.914 0 106.667 47.756 106.667 106.667s-47.753 106.667-106.667 106.667c-58.91 0-106.667-47.756-106.667-106.667s47.757-106.667 106.667-106.667z" />
<glyph unicode="&#xe91e;" glyph-name="Three-Squares--Streamline-Solar-2" d="M512 704c0 80.453 0 120.68 24.994 145.673s65.22 24.994 145.673 24.994h85.333c80.452 0 120.678 0 145.673-24.994s24.994-65.22 24.994-145.673v-85.333c0-80.453 0-120.678-24.994-145.673s-65.22-24.994-145.673-24.994h-85.333c-80.452 0-120.678 0-145.673 24.994s-24.994 65.219-24.994 145.673v85.333zM448 661.312c-66.438-0.195-101.66-2.294-124.34-24.974-24.994-24.994-24.994-65.22-24.994-145.672v-85.333c0-61.321 0-99.273 11.067-124.924 2.999-6.95 6.811-12.996 11.656-18.359 0.733-0.815 1.489-1.609 2.27-2.389 24.993-24.994 65.22-24.994 145.673-24.994h85.333c80.452 0 120.678 0 145.673 24.994 22.682 22.677 24.781 57.899 24.973 124.339h-46.464c-36.932-0.004-70.797-0.009-98.342 3.695-30.336 4.079-62.396 13.675-88.768 40.043-26.368 26.372-35.964 58.432-40.043 88.768-3.703 27.545-3.699 61.408-3.695 98.342v46.465zM234.667 447.979c-66.439-0.192-101.661-2.291-124.34-24.973-24.994-24.994-24.994-65.22-24.994-145.673v-85.333c0-80.452 0-120.678 24.994-145.673s65.22-24.994 145.673-24.994h85.333c80.453 0 120.678 0 145.673 24.994 22.682 22.677 24.781 57.899 24.973 124.339h-46.464c-36.932-0.004-70.796-0.009-98.342 3.695-30.334 4.079-62.396 13.675-88.766 40.043-26.37 26.372-35.965 58.432-40.044 88.768-3.703 27.546-3.7 61.41-3.695 98.342v46.464z" />
<glyph unicode="&#xe91f;" glyph-name="User-Id--Streamline-Solar-3" d="M426.667 789.333c-160.906 0-241.359 0-291.346-49.987s-49.987-130.44-49.987-291.346c0-160.905 0-241.361 49.987-291.345 49.987-49.988 130.44-49.988 291.346-49.988h170.667c160.905 0 241.361 0 291.345 49.988 49.988 49.984 49.988 130.441 49.988 291.345 0 160.906 0 241.359-49.988 291.346-49.984 49.987-130.441 49.987-291.345 49.987h-170.667zM565.333 576c0 17.673 14.327 32 32 32h213.333c17.673 0 32-14.327 32-32s-14.327-32-32-32h-213.333c-17.673 0-32 14.327-32 32zM608 448c0 17.673 14.327 32 32 32h170.667c17.673 0 32-14.327 32-32s-14.327-32-32-32h-170.667c-17.673 0-32 14.327-32 32zM650.667 320c0 17.673 14.327 32 32 32h128c17.673 0 32-14.327 32-32s-14.327-32-32-32h-128c-17.673 0-32 14.327-32 32zM469.333 576c0-47.13-38.204-85.333-85.333-85.333-47.128 0-85.333 38.204-85.333 85.333s38.205 85.333 85.333 85.333c47.13 0 85.333-38.205 85.333-85.333zM384 234.667c-170.667 0-170.667 38.204-170.667 85.333s76.41 85.333 170.667 85.333c94.255 0 170.667-38.204 170.667-85.333s0-85.333-170.667-85.333z" />
<glyph unicode="&#xe920;" glyph-name="User-Speak--Streamline-Solar-2" d="M783.228 891.126c9.092 15.154 28.749 20.069 43.904 10.976l-16.465-27.44c16.465 27.44 16.448 27.448 16.465 27.44l0.060-0.036 0.064-0.041 0.158-0.096 0.41-0.253c0.316-0.195 0.708-0.445 1.178-0.748 0.939-0.607 2.18-1.434 3.682-2.485 2.999-2.1 7.053-5.108 11.802-9.066 9.476-7.897 21.871-19.694 34.214-35.739 24.866-32.33 49.301-81.691 49.301-149.644s-24.435-117.314-49.301-149.644c-12.343-16.045-24.738-27.84-34.214-35.738-4.749-3.959-8.802-6.967-11.802-9.067-1.502-1.050-2.743-1.877-3.682-2.483-0.235-0.154-0.448-0.29-0.644-0.414-0.196-0.128-0.375-0.239-0.533-0.337l-0.41-0.252-0.158-0.094-0.064-0.043c-0.017-0.009-0.060-0.034-16.525 27.405l16.465-27.439c-15.155-9.092-34.812-4.181-43.904 10.974-9.054 15.091-4.22 34.646 10.786 43.789l0.235 0.151c0.311 0.201 0.9 0.591 1.732 1.173 1.668 1.167 4.284 3.092 7.535 5.801 6.524 5.436 15.462 13.906 24.452 25.594 17.801 23.136 36.032 59.109 36.032 110.623s-18.231 87.486-36.032 110.622c-8.99 11.689-17.929 20.158-24.452 25.594-3.251 2.709-5.867 4.634-7.535 5.801-0.832 0.582-1.421 0.972-1.732 1.174l-0.235 0.151c-15.006 9.143-19.84 28.698-10.786 43.788zM426.667 533.334c94.255 0 170.667 76.41 170.667 170.666s-76.412 170.667-170.667 170.667c-94.257 0-170.667-76.41-170.667-170.667s76.41-170.666 170.667-170.666zM85.333 213.333c0-106.039 0-192 341.333-192s341.333 85.961 341.333 192c0 106.039-152.819 192-341.333 192s-341.333-85.961-341.333-192zM741.798 816.768c-15.155 9.093-34.812 4.178-43.904-10.976l10.59-43.669 0.333-0.227c0.499-0.35 1.446-1.042 2.697-2.084 2.526-2.103 6.131-5.506 9.788-10.261 7.134-9.27 14.699-23.909 14.699-45.556s-7.565-36.286-14.699-45.556c-3.657-4.755-7.262-8.158-9.788-10.261-1.25-1.043-2.197-1.734-2.697-2.084l-0.333-0.227c-14.852-9.193-19.605-28.643-10.59-43.669 9.092-15.154 28.749-20.068 43.904-10.976l-16.465 27.44c16.465-27.44 16.448-27.448 16.465-27.44l0.055 0.034 0.064 0.037 0.132 0.082 0.32 0.196 0.819 0.521c0.627 0.405 1.408 0.928 2.33 1.57 1.83 1.283 4.22 3.058 6.967 5.349 5.474 4.564 12.535 11.294 19.546 20.405 14.199 18.464 27.968 46.491 27.968 84.578s-13.769 66.114-27.968 84.577c-7.010 9.111-14.071 15.842-19.546 20.406-2.748 2.291-5.137 4.066-6.967 5.349-0.922 0.643-1.702 1.165-2.33 1.57l-0.819 0.521-0.32 0.196-0.132 0.082-0.064 0.037c-0.013 0.009-0.055 0.035-16.521-27.405l16.465 27.44z" />
</font>
</defs>
</svg>
